#TITLE:V.I.U;
#SUBTITLE:Expi3nze & sdo;
#ARTIST:B2ST;
#TITLETRANSLIT:;
#SUBTITLETRANSLIT:;
#ARTISTTRANSLIT:;
#CREDIT:;
#BANNER:bn.png;
#BACKGROUND:bg.png;
#LYRICSPATH:;
#CDTITLE:cdtitle.png;
#MUSIC:V.I.U.mp3;
#OFFSET:-0.415;
#SAMPLESTART:38.824;
#SAMPLELENGTH:17.955;
#SELECTABLE:YES;
#BPMS:0.000=132.003,1.000=131.996,2.000=132.003,3.000=131.996,4.000=132.003,5.000=131.996,6.000=132.003,7.000=131.996,8.000=132.003,9.000=131.996,10.000=132.003,12.000=131.996,13.000=132.003,14.000=131.996,15.000=132.003,16.000=131.996,17.000=132.003,18.000=66.002,19.000=66.000,20.000=132.003,22.000=131.996,23.000=132.003,24.000=131.996,25.000=132.003,26.000=131.996,27.000=132.003,28.000=131.996,29.000=132.003,30.000=131.996,31.000=132.003,33.000=131.996,34.000=132.003,35.000=131.996,36.000=132.003,37.000=131.996,38.000=132.003,39.000=131.996,40.000=132.003,41.000=131.996,42.000=132.003,44.000=131.996,45.000=132.003,46.000=131.996,47.000=132.003,48.000=131.996,49.000=132.003,50.000=131.996,51.000=132.003,52.000=131.996,53.000=132.003,54.000=131.996,55.000=132.003,57.000=131.996,58.000=132.003,59.000=131.996,60.000=132.003,61.000=131.996,62.000=132.003,63.000=131.996,64.000=132.003,65.000=131.996,66.000=132.003,68.000=131.996,69.000=132.003,70.000=131.996,71.000=132.003,72.000=131.996,73.000=132.003,74.000=131.996,75.000=132.003,76.000=131.996,77.000=132.003,79.000=131.996,80.000=132.003,81.000=131.996,82.000=132.003,83.000=131.996,84.000=132.003,85.000=131.996,86.000=132.003,87.000=131.996,88.000=132.003,90.000=131.996,91.000=132.003,92.000=131.996,93.000=132.003,94.000=131.996,95.000=132.003,96.000=131.996,97.000=132.003,98.000=131.996,99.000=132.003,101.000=131.996,102.000=132.003,103.000=131.996,104.000=132.003,105.000=131.996,106.000=132.003,107.000=131.996,108.000=132.003,109.000=131.996,110.000=132.003,111.000=131.996,112.000=132.003,114.000=131.996,115.000=132.003,116.000=66.000,117.000=66.002,118.000=66.000,124.000=132.003,125.000=131.996,126.000=132.003,128.000=131.996,129.000=132.003,130.000=131.996,131.000=132.003,132.000=131.996,133.000=132.003,134.000=131.996,135.000=132.003,136.000=131.996,137.000=132.003,139.000=131.996,140.000=132.003,141.000=131.996,142.000=132.003,143.000=131.996,144.000=132.003,145.000=131.996,146.000=132.003,147.000=131.996,148.000=132.003,150.000=131.996,151.000=132.003,152.000=131.996,153.000=132.003,154.000=131.996,155.000=132.003,156.000=131.996,157.000=132.003,158.000=131.996,159.000=132.003,161.000=131.996,162.000=132.003,163.000=131.996,164.000=132.003,165.000=131.996,166.000=132.003,167.000=131.996,168.000=132.003,169.000=131.996,170.000=132.003,171.000=131.996,172.000=132.003,174.000=131.996,175.000=132.003,176.000=131.996,177.000=132.003,178.000=131.996,179.000=132.003,180.000=131.996,181.000=132.003,182.000=131.996,183.000=132.003,185.000=131.996,186.000=132.003,187.000=131.996,188.000=132.003,189.000=131.996,190.000=132.003,191.000=131.996,192.000=132.003,193.000=131.996,194.000=132.003,196.000=131.996,197.000=132.003,198.000=131.996,199.000=132.003,200.000=131.996,201.000=132.003,202.000=131.996,203.000=132.003,204.000=131.996,205.000=132.003,206.000=131.996,207.000=132.003,209.000=131.996,210.000=132.003,211.000=131.996,212.000=132.003,213.000=131.996,214.000=132.003,215.000=131.996,216.000=132.003,217.000=131.996,218.000=132.003,219.000=131.996,220.000=132.003,222.000=131.996,223.000=132.003,224.000=131.996,225.000=132.003,226.000=131.996,227.000=132.003,228.000=131.996,229.000=132.003,230.000=131.996,231.000=132.003,233.000=131.996,234.000=132.003,235.000=131.996,236.000=132.003,237.000=131.996,238.000=132.003,239.000=131.996,240.000=132.003,241.000=131.996,242.000=132.003,244.000=131.996;
#STOPS:;
#BGCHANGES:;
// cache tags:
#FIRSTBEAT:6.000;
#LASTBEAT:244.000;
#SONGFILENAME:songs/SDO Latino/V.I.U (B2ST)/V.I.U.sm;
#HASMUSIC:1;
#HASBANNER:1;
#MUSICLENGTH:116.593;
// end cache tags

//---------------dance-single - ----------------
#NOTES:
     dance-single:
     :
     Hard:
     25:
     1.000,1.000,1.000,0.352,0.883,654.000,301.000,41.000,0.000,97.000:
0000
0000
0000
0000
,
0000
0000
0000
0000
0000
0000
0000
0000
0010
0000
0000
0000
0000
1000
0010
0100
,
0001
0001
1000
1000
0010
0000
0000
0000
1000
0000
0000
0000
0011
0000
0100
0100
,
0000
0010
0000
0010
1100
0000
0000
0000
2002
0000
0000
0000
0000
0000
0000
0000
,
0000
0000
0000
0000
3203
0302
2003
3202
,
1303
0101
0010
1001
0010
1010
0100
1010
,
0200
0000
0011
0000
1300
0000
1001
0010
0100
0000
1010
0000
0001
0000
1010
0000
,
0002
1010
0103
1001
0010
0101
0010
1001
,
0101
1001
0010
0101
1000
0110
0010
2001
,
0010
0101
0100
0011
0010
0011
0100
0110
,
3010
0000
0101
0000
0010
0000
1001
0000
0100
0000
0011
0000
1001
0000
0101
1000
,
0010
0000
1001
0000
0100
0000
1010
0000
0001
0000
0110
0000
1000
0000
0101
0010
,
1001
1010
0100
0010
1001
0101
1010
1001
,
2110
0011
3110
0101
0010
1001
0110
0101
,
1000
0101
1100
0110
0010
1001
0101
1010
,
0102
0000
1010
0000
0113
0000
1001
0010
0100
0000
1010
0000
0011
0000
1001
0010
,
0100
0110
1010
0101
0010
1001
1100
0102
,
0010
1100
0110
1010
0100
1100
1010
0110
,
0113
1010
0101
1001
0101
1010
0101
0010
,
2010
0101
3211
1001
1320
0101
1132
1010
,
0103
1010
0001
0110
1000
0101
1010
1001
,
1001
0000
0101
0000
0010
0000
0101
0000
1010
0000
0101
0000
0010
0000
1001
0010
,
0101
1001
0010
0101
0110
1001
0101
1001
,
1010
0000
0101
0000
0010
0000
1001
0000
0110
0000
1010
0000
0100
0000
1001
0010
,
0101
1001
0010
0101
1010
1001
0011
0101
,
1020
1000
0101
0000
1100
0000
1001
0000
0100
0000
1001
0000
0101
0000
1001
0000
,
0100
0100
1001
0000
0101
0000
1031
0000
0100
0000
1010
0000
0101
0000
1001
0000
,
0210
0010
1001
0000
1001
0000
1010
0000
0001
0000
0011
0000
1010
0000
1001
0000
,
1000
1000
0011
0000
1010
0000
0301
0000
1000
0000
0010
0000
0100
0100
0001
0001
,
0010
1000
0001
0100
0010
1000
0001
0000
1110
0000
0100
0010
0001
1000
0010
0001
0100
0010
1001
0000
0010
0000
1001
0000
0111
0000
1000
1000
0010
0100
0001
0000
,
1000
0000
0001
0010
1000
0100
0010
0001
1110
0000
0001
0100
0000
0010
0000
0000
0100
0000
1001
0000
0010
0000
0101
0000
1110
0000
0110
0001
1000
0100
0010
0001
,
0100
0000
0010
0000
1001
0000
0100
0000
0010
0001
1000
0100
0011
0000
1010
0001
,
0100
0000
0001
0010
1100
0010
0001
0000
0100
0010
1000
0001
1010
0000
0100
0010
,
0001
0000
1010
0100
0011
0000
1010
0000
0100
0010
1001
0000
0101
0000
1010
0010
,
0101
1011
0101
1110
0101
0111
1010
0101
,
0010
0100
1001
0001
0110
1000
0101
0010
0100
0010
1001
0010
0101
0010
1020
0001
,
0100
1000
0031
0100
1010
0001
0100
0010
0001
0100
2010
0010
0101
0010
3100
0001
,
0100
1000
0011
0100
1010
0100
0101
0010
0001
0010
1100
0010
0101
0010
2001
0100
,
0010
0001
3100
1000
0011
0100
1020
0001
0100
1000
0031
0100
1010
0001
0210
0001
,
1010
1000
0011
0001
1010
0010
1001
1000
0010
0010
1301
1000
0011
0001
1010
1000
,
0101
0010
1010
0100
0101
0001
1010
1000
0201
0010
1001
0010
0301
0100
2010
0001
,
0101
0001
0110
0010
0101
0001
0110
0100
0011
0100
0101
0010
3100
0001
1010
0100
,
0001
1000
0100
1000
0011
0100
1000
0010
0001
1000
0100
0001
1010
0010
0100
0101
,
1010
0101
0011
1001
1010
0001
1100
0101
,
1010
0000
1001
0000
0011
0000
0101
0000
0010
0000
1001
0000
0110
0000
1001
0100
,
0010
0000
1001
0000
0011
0000
1000
0000
1001
0000
0010
0000
1001
0000
0100
0010
,
1001
0000
0101
0000
1100
0000
0110
0000
1002
0000
0100
0000
1013
0000
0201
0010
,
0001
1310
0100
0021
1001
0130
1010
0201
,
0010
1301
0011
1010
1000
0101
0110
1001
,
0001
0110
1000
0110
0001
0110
1010
0201
,
0001
0000
0001
0000
1000
0000
1000
0000
0010
0000
0010
0000
0001
0000
0001
0000
1000
0010
0001
0010
1000
0010
0001
1000
0311
0000
0001
0000
1000
0000
1010
0000
,
0100
0010
1001
0100
0011
0100
1001
0010
0100
0001
1010
0010
0101
0100
1010
0010
,
0101
0100
1001
1000
0011
0100
1010
1000
0101
1000
0110
0001
1100
0010
0101
0010
,
1001
0010
0101
1000
0010
0100
1001
0010
0101
0001
1010
1000
0100
0010
1001
0010
,
0101
0100
1001
1000
0011
0100
1010
0001
0102
0010
1000
0100
1013
0001
0102
1000
,
0010
0100
1000
1000
0210
1000
0010
1000
2300
0010
0100
0010
3110
0100
1010
0010
,
0100
0100
1010
1000
0110
0100
1013
0010
0100
0010
1001
0010
0102
1000
1010
0100
,
0213
0010
1000
1000
0011
0001
1000
1000
0012
0010
1000
1000
1013
0010
1001
0001
,
1010
0001
0010
0001
1010
1000
0001
0010
1001
0001
1310
0010
1100
0100
0001
0001
,
2010
0000
0000
0000
,
3020
0002
0000
0000
,
0033
0000
0000
0000
;
